Skip to main content

The Dead Live at Wachovia Arena on 2009-04-22




The Dead
Wachovia Arena
Wilkes Barre, PA
April 22, 2009

*********************************************************************************************************************
Source:
2x Beyerdynamic MC930's(Matched Stereo Pair)(DIN)>
Canare Cables>Digi-Mod-Edirol-UA5>Creative Nomad JB3(44.1 khz)

Transfer:
JB3>Nomad Explorer>Wavlab 5.0(fades/track cuts)>Traders Little Helper>Flac 16bit
Recorded from DFC-OTS at SBD@14.5 ft high
Recorded/Edited by MULETAPER
No.DA.E.

Thanks to a special few freinds for making this recording possible.
~find love thru music and share it~
**********************************************************************************************************************

Disc 1:
Set 1:
01. Mr. Charlie
02. Stagger Lee
03. Liberty
04. Candyman
05. Me & My Uncle
06. Built To Last
07. Tennessee Jed
08. Dire Wolf

Disc 2:
Set 2:
01. Tuning
02. The Golden Road (To Unlimited Devotion) >
03. Revolution
04. Weather Report Suite (Part I) >
05. Iko Iko >
06. Drums >
07. Space >
08. Caution (Do Not Stop On The Tracks) >

Disc 3: (set 2 cont.)
01. So Many Roads >
02. In The Midnight Hour
Encore:
03. Donor Rap >
04. Box Of Rain


Collection TheDead
Band/Artist The Dead
Venue Wachovia Arena
Location Wilkes Barre, PA

Source Beyerdynamic MC930's(Matched Stereo Pair)(DIN)>Canare Cables>Digi-Mod-Edirol-UA5>Creative Nomad JB3(44.1 khz)
Lineage JB3>Nomad Explorer>Wavlab 5.0(fades/track cuts)>Traders Little Helper>Flac 16bit
Taped by MULETAPER
Transferred by MULETAPER

Notes

The Dead
Wachovia Arena
Wilkes Barre, PA
April 22, 2009

*********************************************************************************************************************
Source:
2x Beyerdynamic MC930's(Matched Stereo Pair)(DIN)>
Canare Cables>Digi-Mod-Edirol-UA5>Creative Nomad JB3(44.1 khz)

Transfer:
JB3>Nomad Explorer>Wavlab 5.0(fades/track cuts)>Traders Little Helper>Flac 16bit
Recorded from DFC-OTS at SBD@14.5 ft high
Recorded/Edited by MULETAPER
No.DA.E.

Thanks to a special few freinds for making this recording possible.
~find love thru music and share it~
**********************************************************************************************************************

shntool:
length expanded size cdr WAVE problems fmt ratio filename
11:19.45 119881484 B --- -- ---xx dead2009-04-22d1t01.flac
7:00.28 74153900 B --- -- ---xx dead2009-04-22d1t02.flac
10:52.15 115048124 B --- -- ---xx dead2009-04-22d1t03.flac
8:16.73 87666140 B --- -- ---xx dead2009-04-22d1t04.flac
5:14.32 55464908 B --- -- ---xx dead2009-04-22d1t05.flac
4:53.35 51767564 B --- -- ---xx dead2009-04-22d1t06.flac
10:02.69 106355132 B --- -- ---xx dead2009-04-22d1t07.flac
4:35.48 48622940 B --- -- ---xx dead2009-04-22d1t08.flac
1:29.48 15812540 B --- -- ---xx dead2009-04-22d2t01.flac
8:28.40 89705324 B --- -- ---xx dead2009-04-22d2t02.flac
7:28.20 79074284 B --- -- ---xx dead2009-04-22d2t03.flac
7:07.16 75360476 B --- -- ---xx dead2009-04-22d2t04.flac
10:08.28 107317100 B --- -- ---xx dead2009-04-22d2t05.flac
8:47.34 93042812 B --- -- ---xx dead2009-04-22d2t06.flac
15:38.40 165557324 B --- -- ---xx dead2009-04-22d2t07.flac
13:54.15 147152924 B --- -- ---xx dead2009-04-22d2t08.flac
9:59.28 105729500 B --- -- ---xx dead2009-04-22d3t01.flac
15:38.50 165580844 B --- -- ---xx dead2009-04-22d3t02.flac
3:08.35 33245564 B --- -- ---xx dead2009-04-22d3t03.flac
5:38.73 59794940 B --- -- ---xx dead2009-04-22d3t04.flac
169:43.22 1796333824 B 0.5495 (20 files)

Reviews

There are no reviews yet. Be the first one to write a review.
DOWNLOAD OPTIONS
In Collection
The Dead
In Collection
Live Music Archive
Uploaded by
ekoostikal
on 5/13/2009
Views
686
Favorites
2
PEOPLE ALSO FOUND
The Dead
by The Dead
686
2
0
Source: Beyerdynamic MC930's(Matched Stereo Pair)(DIN)>Canare Cables>Digi-Mod-Edirol-UA5>Creative Nomad JB3(44.1 khz)
The Dead
by The Dead
2,003
2
0
Source: Schoeps CCM4V'S(din)>Lunatec V2>Benchmark AD2K> Sound Devices 722 (24/48)
The Dead
by The Dead
613
2
0
Source: schoeps mk-4> actives > nbox > edirol r-09 (24/44.1)
The Dead
by The Dead
1,466
2
2
( 2 reviews )
Source: Schoeps CCM4V'S(din)>Lunatec V2>Sound Devices 722 (24/48)
The Dead
by The Dead
1,255
3
1
( 1 reviews )
Source: Beyerdynamic MC930's(Matched Stereo Pair)(DIN)>Canare Cables>Digi-Mod-Edirol-UA5>Creative Nomad JB3(44.1 khz)
The Dead
by The Dead
3,066
5
0
Source: schoeps CCM4V'S(din)>Lunatec V2>Benchmark AD2K> Sound Devices 722 (24/48)
Ekoostik Hookah
by Ekoostik Hookah
973
2
2
( 2 reviews )
Source: Schoeps CCM4V'S(din)>Lunatec V2>Sound Devices 722 (24/48)
Ryan Montbleau
by Ryan Montbleau
612
1
0
Source: Schoeps CCM4V'S(din)>Lunatec V2>Benchmark AD2K> Sound Devices 722 (24/48)
Scrapomatic
by Scrapomatic
192
1
0
Source: Source: Schoeps CCM4V'S(din)>Lunatec V2>Benchmark AD2K> Sound Devices 722 (24/48) FOB/DFC/KFC/ZFC/AARP 45' From Stage, 7' High
Phil Lesh and Friends
by Phil Lesh and Friends
1,011
1
0
Source: 2x Beyerdynamic MC930's(Matched Stereo Pair)(OTRF)@ 12 ft high >Canare Cables>Digi-Mod Edirol UA5>Nomad JB3(44.1 khz)